Menu

Lire vidéo enregistrée avec un magnétoscope HDD LG sur mon PC

- - Dernière réponse : quentin2121
Messages postés
2230
Date d'inscription
lundi 24 mai 2010
Statut
Membre
Dernière intervention
19 mai 2019
- 1 mai 2019 à 12:24
Bonjour à tous,

J'ai un lecteur/enregistreur DVD de marque LG sur lequel je peux enregistrer la TNT sur un disque dur intégré.
J'ai pu transférer les fichiers sur mon disque dur externe "WD My Passport" :
L'enregistreur m'a créé un dossier qui s'appelle LGDVR sous lequel se trouvent des sous-dossiers par enregistrement copié.
Enfin, dans ces sous dossiers, on retrouve 5 fichiers, dont un fichier .TS qu'il m'est impossible d'ouvrir sur le PC avec les logiciels de lecture (windows media player, vlc, films et tv qui affiche l'erreur "0x8000ffff") ni même avec des logiciels de montage vidéo ou de conversion vidéo.

Si vous avez une explication à m'apporter pour parvenir à exploiter ces vidéos, ça serait génial !

Je reste bien sur à dispo pour préciser certaines choses.

Merci à tous :)



Configuration: Windows / Firefox 66.0
Afficher la suite 

Votre réponse

4 réponses

Messages postés
2230
Date d'inscription
lundi 24 mai 2010
Statut
Membre
Dernière intervention
19 mai 2019
139
0
Merci
Essayer de le convertir en .avi ou .mp4 avec le logiciel "media coder".
Commenter la réponse de quentin2121
Messages postés
16889
Date d'inscription
mardi 29 décembre 2009
Statut
Contributeur
Dernière intervention
21 mai 2019
2118
0
Merci
bonjour mon avis, mais je suis prêt à en changer comme c'est marqué dessous,
si on me prouve le contraire, le format des disques durs intégrés à un enregistreur n'est pas conçu pour être copié
Commenter la réponse de glandu
0
Merci
Bonjour à tous,

Merci pour vos retours,
J'ai téléchargé MediaCoder, ça a l'air de fonctionner (mais vu que c'est une version gratuite ça bloque au bout d'un moment mdr)
Mais il faut que j'arrive à trouver le bon paramétrage pour ne pas trop perdre en qualité, si vous vous y connaissez, je suis preneur aussi.

Merci :)
glandu
Messages postés
16889
Date d'inscription
mardi 29 décembre 2009
Statut
Contributeur
Dernière intervention
21 mai 2019
2118 -
Bonjour ça m' intéresse
donnez moi le format du fichier sa résolution et son bitrate
> glandu
Messages postés
16889
Date d'inscription
mardi 29 décembre 2009
Statut
Contributeur
Dernière intervention
21 mai 2019
-
Bonjour @glandu
Voici ce que me donne le logiciel MediaCoder sur les propriétés des vidéos que je souhaite convertir. Si vous pouvez m'aider à trouver le meilleur format de conversion :)
Bon courage :

General
Complete name : G:\LGDVR\00000007REC\0000000700000001.TS
Format : BDAV
Format/Info : Blu-ray Video
Format profile : No PAT/PMT
File size : 2.61 GiB
Duration : 1 h 7 min
Overall bit rate : 5 586 kb/s
FileExtension_Invalid : m2ts mts ssif

Video
ID : 120 (0x78)
Format : AVC
Format/Info : Advanced Video Codec
Format profile : High@L4
Format settings : CABAC / 4 Ref Frames
Format settings, CABAC : Yes
Format settings, ReFrames : 4 frames
Duration : 1 h 6 min
Bit rate : 4 968 kb/s
Width : 1 920 pixels
Height : 1 080 pixels
Display aspect ratio : 16:9
Frame rate : 25.000 FPS
Standard : Component
Color space : YUV
Chroma subsampling : 4:2:0
Bit depth : 8 bits
Scan type : MBAFF
Scan type, store method : Separated fields
Scan order : Top Field First
Bits/(Pixel*Frame) : 0.096
Stream size : 2.32 GiB (89%)
Color range : Limited
Color primaries : BT.709
Transfer characteristics : BT.709
Matrix coefficients : BT.709

Audio #1
ID : 130 (0x82)
Format : E-AC-3
Format/Info : Enhanced AC-3
Commercial name : Dolby Digital Plus
Duration : 1 h 7 min
Bit rate mode : Constant
Bit rate : 128 kb/s
Channel(s) : 2 channels
Channel layout : L R
Sampling rate : 48.0 kHz
Frame rate : 31.250 FPS (1536 SPF)
Compression mode : Lossy
Delay relative to video : -499 ms
Stream size : 61.3 MiB (2%)
Service kind : Complete Main

Audio #2
ID : 131 (0x83)
Format : E-AC-3
Format/Info : Enhanced AC-3
Commercial name : Dolby Digital Plus
Duration : 1 h 7 min
Bit rate mode : Constant
Bit rate : 128 kb/s
Channel(s) : 2 channels
Channel layout : L R
Sampling rate : 48.0 kHz
Frame rate : 31.250 FPS (1536 SPF)
Compression mode : Lossy
Delay relative to video : -499 ms
Stream size : 61.3 MiB (2%)
Service kind : Complete Main

Audio #3
ID : 132 (0x84)
Format : E-AC-3
Format/Info : Enhanced AC-3
Commercial name : Dolby Digital Plus
Duration : 1 h 7 min
Bit rate mode : Constant
Bit rate : 128 kb/s
Channel(s) : 2 channels
Channel layout : L R
Sampling rate : 48.0 kHz
Frame rate : 31.250 FPS (1536 SPF)
Compression mode : Lossy
Delay relative to video : -499 ms
Stream size : 61.3 MiB (2%)
Service kind : Complete Main
Commenter la réponse de Rom1-83571390
Messages postés
16889
Date d'inscription
mardi 29 décembre 2009
Statut
Contributeur
Dernière intervention
21 mai 2019
2118
0
Merci
Bonjour d'après votre relevé je pense que vous pouvez gardez la même configuration en codec avc h264 en 1920x1080 frame rate : 25 im/s gardez le même débit (bitrate ) à 5000kb/s choisissez comme container le mpeg4 (.mp4)


Ps : la qualité de votre vidéo est déjà moyenne au vu du bitrate à moins de 5000




en " les Anes changent d'avis pas les imbéciles"
pensez à mettre" résolu"à votre message si c'est le cas
quentin2121
Messages postés
2230
Date d'inscription
lundi 24 mai 2010
Statut
Membre
Dernière intervention
19 mai 2019
139 -
pas mal ce "media coder"... bonne fête du muguet Glandu :)
Commenter la réponse de glandu